» » Tadaaki Otaka - Takemitsu: How Slow the Wind
Tadaaki Otaka - Takemitsu: How Slow the Wind mp3 download

Tadaaki Otaka - Takemitsu: How Slow the Wind mp3 download

Performer: Tadaaki Otaka
Title: Takemitsu: How Slow the Wind
Style: Orchestral
Duration: 01:11:33
Released: 2000
Size MP3 version: 1275 mb
Size FLAC version: 1885 mb
Size WMA version: 1934 mb
Rating: 4.3
Votes: 605
Format: MP2 VOX TTA APE XM VOC
Genre: Classical

Tadaaki Otaka - Takemitsu: How Slow the Wind mp3 download


Concert with amazing Video art - Toro Takemitsu: How Slow the Wind - Yaron Gottfried Conducting The Netanya Kibbutz Orchestra,Video art by Yael Toren.

Album · 2001 · 6 Songs. Fantasma - Cantos II - For Trombone and Orchestra. Christian Lindberg, Kioi Sinfonietta Tokyo & Tadaaki Otaka.

Toru Takemitsu Composer. How Slow the Wind Work. Tadaaki Otaka Conductor, Kioi Sinfonietta Tokyo Orchestra. 5. How Slow the Wind.

Takemitsu: How Slow the Wind. Tree Line, for chamber orchestra. blue highlight denotes track pick.

5. How Slow the Wind, for orchestra. 6. Performer: Christian Lindberg. Orchestra: Kioi Sinfonietta Tokyo. Conductor: Tadaaki Otaka. Composer: Toru Takemitsu. Audio CD (March 27, 2001).

Takemitsu - How Slow The Wind/Takemitsu - How Slow The Wind. Takemitsu - How Slow The Wind/scans/ - . 0. Takemitsu - How Slow The Wind/scans/p-12-13. Takemitsu - How Slow The Wind/scans/p-02-03. Takemitsu - How Slow The Wind/scans/p-18-19. Takemitsu - How Slow The Wind/scans/p-20. Takemitsu - How Slow The Wind/scans/p-16-17. Takemitsu - How Slow The Wind/scans/p-08-09. Takemitsu - How Slow The Wind/scans/p-10-11. Takemitsu - How Slow The Wind/scans/p-14-15. Takemitsu - How Slow The Wind/Takemitsu - How Slow The Wind.

Kioi Sinfonietta Tokyo, Tadaaki Otaka, Toru Takemitsu - How Slow The Wind. INDEX 00 38:42:36 INDEX 01 38:42:45 TRACK 05 AUDIO TITLE "How Slow the Wind (1991) for orchestra" PERFORMER "Kioi Sinfonietta Tokyo, Tadaaki Otaka" INDEX 01 47:15:72 TRACK 06 AUDIO TITLE "Tree Line (1988) for chamber orchestra" PERFORMER "Kioi Sinfonietta Tokyo, Tadaaki Otaka" INDEX 00 59:40:71 INDEX 01 59:41:07.

By Toru Takemitsu, Tadaaki Otaka. How Slow the Wind - Kioi Sinfonietta Tokyo, 12:250:30. Tree Line - Kioi Sinfonietta Tokyo, 11:550:30. More by Toru Takemitsu.

Performers: Trombone - Christian Lindberg Orchestra - Kioi Sinfonietta Tokyo Conductor - Tadaaki Otaka Composer - Toru Takemitsu. It is rare to find a disc as creatively programmed as this BIS release. Enhanced by lovely performances, played with great devotion to the memory of the recently-deceased Japanese master, the repertoire was chosen by conductor Tadaaki Otaka and producer Robert Suff, who organized it not only in the most effective succesion, but in a manner that illustrates the works' individual meaning and illuminates Takemitsu's career

Track List

Title/Composer Performer Time
1 Rain Coming, for chamber orchestra Tadaaki Otaka 8:38
2 Archipelago S., for 21 players Tadaaki Otaka 13:42
3 Fantasma/Cantos 2, for trombone & orchestra Tadaaki Otaka 16:20
4 Requiem, for string orchestra Tadaaki Otaka 8:33
5 How Slow the Wind, for orchestra Tadaaki Otaka 12:25
6 Tree Line, for chamber orchestra Tadaaki Otaka 11:55

Credits

Andrew Barnett - Layout Design, Type Setting
Kyllikki Barnett - Layout Design, Type Setting
Kelly Baxter - Translation
Jens Braun - Balance Engineer
Matthew Harvey - Cover Painting
Kioi Sinfonietta Tokyo - Orchestra
Arlette Lemieux-Chené - Translation
Christian Lindberg - Trombone
Martin Nagorni - Digital Editing
Tadaaki Otaka - Conductor, Primary Artist
Horst A. Scholz - Translation
Robert Suff - Producer