» » Various Artists - Optimism Sampler, Vol. 2
Various Artists - Optimism Sampler, Vol. 2 mp3 download

Various Artists - Optimism Sampler, Vol. 2 mp3 download

Performer: Various Artists
Title: Optimism Sampler, Vol. 2
Style: Contemporary Jazz,Crossover Jazz,Fusion,Hard Bop,Instrumental Pop,Post-Bop,Smooth Jazz
Duration: 01:12:03
Released: 1988
Size MP3 version: 1598 mb
Size FLAC version: 1168 mb
Size WMA version: 1162 mb
Rating: 4.7
Votes: 221
Format: AAC DXD AA MMF DTS WMA
Genre: Jazz

Various Artists - Optimism Sampler, Vol. 2 mp3 download


Various Artists: Sound Sampler Vol. 2. Done with love: for the music, for dancers, for detail. real House music in four incarnations. A1 Soundstream: Aqua Dance. A2 Soundstudio: Track 440. B1 Soundhack: What You Feel. B2 Soundstore: Relief.

Listen free to Various Artists – Winter Clubbing Sampler 2017, Vol. 2 (Jazz One, Streets of San Francisco (Extended Club Mix) and more). Discover more music, concerts, videos, and pictures with the largest catalogue online at Last.

Various - Various Artists Sampler. Enhanced Chill Vol. 5, 112. Various.

Release Date 2019-03-01. Label Resonance Records.

Various ‎– Sound Sampler Vol. Label: Soundsampler ‎– SSMPLR 02. Format: Vinyl, 12", 33 ⅓ RPM, Promo, White Label.

Various Artists - The Stockfisch DMM-CD/SACD, Vo. (2016) {Folk, Country}. 1 Carrie Newcomer: The Slender Thread 2 Allan Taylor: Endless Highway 3 Paul Stephenson: Girl With A Mirror 4 Sara K. Feat. Không biết Invisible9x có các album "Various Artists - The Venus Amazing Super Audio CD Sampler" từ Vo. trở lên dạng ISO không, nếu có cho xin - cám ơn nhiều.

REM GENRE Jazz REM DATE 2012 PERFORMER "Various Artists" TITLE "Neuklang Sampler Vol. 2 (WEB 2012 Neuklang)" FILE "01. Torque - Forward. flac" WAVE TRACK 01 AUDIO TITLE "Forward" PERFORMER "Torque" INDEX 01 00:00:00 FILE "02. Frank Kuruc - Wassernixen. flac" WAVE TRACK 02 AUDIO TITLE "Wassernixen" PERFORMER "Frank Kuruc" INDEX 01 00:00:00 FILE "03. Simin Tander - Becoming. flac" WAVE TRACK 03 AUDIO TITLE "Becoming" PERFORMER "Simin Tander" INDEX 01 00:00:00 FILE "04.

Album titlle: Psychobilly Sampler Vo. (CD). Year of publication 1996. Various - Psychobilly Sampler Vo. (CD) CD 1. 01. Bloody Holiday. 02. Out Of This World. Learn more about Various more. Various Artists , Singles Collections etc. Various Artist on Bear Family.

Track List

Title/Composer Performer Time
1 Saturday Afternoon Dan Seigel Birds of a Feather 3:47
2 Out of Line Michael Pedicin, Jr. 4:44
3 Talking Leaves Cheryl Barnes 5:02
4 Early Spring Alphonse Mouzon Alphonse Mouzon 5:12
5 59th Street Mark Hunter / Carl Evans, Jr. / Steve Laury Fattburger 7:19
6 When the Lights Go Out Mike Lawrence 5:41
7 When Is It Real Tod Vullo / Kirk Whalum Alexander Zonjic 4:25
8 Say Uncle Uncle Festive 5:13
9 Faces Billy Mitchell 6:12
10 Alone in Paris Alphonse Mouzon Alphonse Mouzon 3:35
11 Center of Gravity Max Groove Max Groove 4:20
12 Search Peter Kater Peter Kater 4:41
13 Mama Kalimba Brian Torff Brian Torff 5:32
14 Monday Afternoon Leslie Drayton 6:20

Credits

Cheryl Barnes - Performer, Primary Artist
Birds of a Feather - Performer, Primary Artist
Leslie Drayton - Performer, Primary Artist
Carl Evans, Jr. - Composer
Fattburger - Performer, Primary Artist
Max Groove - Composer, Performer, Primary Artist
Mark Hunter - Composer
Peter Kater - Composer, Performer, Primary Artist
Steve Laury - Composer
Mike Lawrence - Performer, Primary Artist
Billy Mitchell - Primary Artist
Alphonse Mouzon - Composer, Performer, Primary Artist
Michael Pedicin, Jr. - Performer, Primary Artist
Dan Seigel - Composer
Brian Torff - Composer, Performer, Primary Artist
Uncle Festive - Performer, Primary Artist
Tod Vullo - Composer
Kirk Whalum - Composer
Alexander Zonjic - Performer, Primary Artist